Odd Taxi [1080p-Hardsub-Türkçe]

Odd Taxi [1080p-DB-Hardsub] İndir-İzle
Alternatif

Not: Telefonunuzda, tabletinizde, bilgisayarınızda MPC, VLC, MV programlarından
biriyle indirip veya tıklayıp izleyebilirsiniz. Link, klasör şeklindedir. Yeni bölüm attıkça sosyal medya hesaplarımızdan bildiririz. Oynatıcıdan 1080p ya da 720p’yi seçmeyi unutmayın. Aynı zamanda Turkanime‘den de izleyebilirsiniz.

General
Complete name               : OddTaxi [Fratello] V1.1.mp4
Format                      : MPEG-4
Format profile              : Base Media
Codec ID                    : isom (isom/iso2/avc1/mp41)
File size                   : 384 MiB
Duration                    : 23 min 51 s
Overall bit rate            : 2 250 kb/s
Writing application         : Lavf58.29.100

Video
ID                          : 1
Format                      : AVC
Format/Info                 : Advanced Video Codec
Format profile              : High 10@L4
Format settings             : CABAC / 4 Ref Frames
Format settings, CABAC      : Yes
Format settings, Reference  : 4 frames
Codec ID                    : avc1
Codec ID/Info               : Advanced Video Coding
Duration                    : 23 min 50 s
Bit rate                    : 2 125 kb/s
Width                       : 1 920 pixels
Height                      : 1 080 pixels
Display aspect ratio        : 16:9
Frame rate mode             : Constant
Frame rate                  : 23.976 (24000/1001) FPS
Color space                 : YUV
Chroma subsampling          : 4:2:0
Bit depth                   : 10 bits
Scan type                   : Progressive
Bits/(Pixel*Frame)          : 0.043
Stream size                 : 361 MiB (94%)
Writing library             : x264 core 157
Encoding settings           : cabac=1 / ref=3 / deblock=1:0:0 / analyse=0x3:0x113 / me=hex / subme=7 / psy=1 / psy_rd=1.00:0.00 / mixed_ref=1 / me_range=16 / chroma_me=1 / trellis=1 / 8x8dct=1 / cqm=0 / deadzone=21,11 / fast_pskip=1 / chroma_qp_offset=-2 / threads=6 / lookahead_threads=1 / sliced_threads=0 / nr=0 / decimate=1 / interlaced=0 / bluray_compat=0 / constrained_intra=0 / bframes=3 / b_pyramid=2 / b_adapt=1 / b_bias=0 / direct=1 / weightb=1 / open_gop=0 / weightp=2 / keyint=250 / keyint_min=23 / scenecut=40 / intra_refresh=0 / rc_lookahead=40 / rc=abr / mbtree=1 / bitrate=2125 / ratetol=1.0 / qcomp=0.60 / qpmin=0 / qpmax=81 / qpstep=4 / ip_ratio=1.40 / aq=1:1.00
Codec configuration box     : avcC

Audio
ID                          : 2
Format                      : AAC LC
Format/Info                 : Advanced Audio Codec Low Complexity
Codec ID                    : mp4a-40-2
Duration                    : 23 min 51 s
Bit rate mode               : Constant
Bit rate                    : 128 kb/s
Channel(s)                  : 2 channels
Channel layout              : L R
Sampling rate               : 44.1 kHz
Frame rate                  : 43.066 FPS (1024 SPF)
Compression mode            : Lossy
Stream size                 : 21.9 MiB (6%)
Title                       : Stereo
Language                    : Japanese
Subtitles                   : Türkçe (Hardsub)
Default                     : Yes
Alternate group             : 1

Dipnot:Okuduğunuz bölüme, yazıya izlediğiniz animeye teşekkür mahiyetinde reklamlarımıza bir kere tıklarsanız minnettar kalırız. Böylece emeği geçenlere de haklarını vermiş olursunuz. Kreosus’tan desteklemek isterseniz ana sayfadan veya buradan abonemiz olabilirsiniz.