Astro Boy [2003] (720×400 Hardsub)

Astro Boy [2003] İndir/İzle
Alternatif

Not: Telefonunuzda, tabletinizde, bilgisayarınızda MPC, VLC, MV veya kodek destekleyen herhangi vidyo oynatıcısından da indirip izleyebilirsiniz. Link, klasör şeklindedir. Yeni bölüm attıkça sosyal medya hesaplarımızdan bildiririz. Turkanime‘de de mevcuttur.

General
Complete name               : Astro Boy-[2003] V2.mp4
Format                      : MPEG-4
Format profile              : Base Media
Codec ID                    : isom (isom/iso2/avc1/mp41)
File size                   : 198 MiB
Duration                    : 23 min 38 s
Overall bit rate mode       : Variable
Overall bit rate            : 1 172 kb/s
Writing application         : Lavf58.29.100

Video
ID                          : 1
Format                      : AVC
Format/Info                 : Advanced Video Codec
Format profile              : Main@L3
Format settings             : CABAC / 1 Ref Frames
Format settings, CABAC      : Yes
Format settings, Reference  : 1 frame
Codec ID                    : avc1
Codec ID/Info               : Advanced Video Coding
Duration                    : 23 min 38 s
Bit rate mode               : Variable
Bit rate                    : 1 038 kb/s
Maximum bit rate            : 3 228 kb/s
Width                       : 720 pixels
Height                      : 400 pixels
Display aspect ratio        : 16:9
Frame rate mode             : Constant
Frame rate                  : 23.976 (24000/1001) FPS
Color space                 : YUV
Chroma subsampling          : 4:2:0
Bit depth                   : 8 bits
Scan type                   : Progressive
Bits/(Pixel*Frame)          : 0.150
Stream size                 : 176 MiB (89%)
Language                    : Japanese
Codec configuration box     : avcC

Audio
ID                          : 2
Format                      : AAC LC
Format/Info                 : Advanced Audio Codec Low Complexity
Codec ID                    : mp4a-40-2
Duration                    : 23 min 38 s
Bit rate mode               : Constant
Bit rate                    : 129 kb/s
Channel(s)                  : 2 channels
Channel layout              : L R
Sampling rate               : 44.1 kHz
Frame rate                  : 43.066 FPS (1024 SPF)
Compression mode            : Lossy
Stream size                 : 21.7 MiB (11%)
Default                     : Yes
Alternate group             : 1

Dipnot:Okuduğunuz bölüme, yazıya izlediğiniz animeye teşekkür mahiyetinde reklamlarımıza bir kere tıklarsanız minnettar kalırız. Böylece emeği geçenlere de haklarını vermiş olursunuz. Direkt para göndererek desteklemek isteyenler de destek sayfamıza bakabilirler.